<?xml version="1.0" standalone="no"?>
<!DOCTYPE svg PUBLIC "-//W3C//DTD SVG 1.1//EN" "http://www.w3.org/Graphics/SVG/1.1/DTD/svg11.dtd" >
<svg xmlns="http://www.w3.org/2000/svg" xmlns:xlink="http://www.w3.org/1999/xlink" version="1.1">
<metadata></metadata>
<defs>
<font id="sk-modernistregular" horiz-adv-x="1228" >
<font-face units-per-em="2048" ascent="1638" descent="-410" />
<missing-glyph horiz-adv-x="487" />
<glyph unicode="&#xfb01;" horiz-adv-x="1060" d="M61 881v143h164v115q0 129 77.5 207.5t205.5 78.5q44 0 82 -20v-129h-70q-59 0 -95 -38t-36 -99v-115h549v-1024h-164v881h-385v-881h-164v881h-164zM774 1180v225h164v-225h-164z" />
<glyph unicode="&#xfb02;" horiz-adv-x="1060" d="M61 881v143h164v115q0 129 77.5 207.5t205.5 78.5q44 0 82 -20v-129h-70q-59 0 -95 -38t-36 -99v-115h201v-143h-201v-881h-164v881h-164zM774 -4v1405h164v-1405h-164z" />
<glyph horiz-adv-x="0" />
<glyph horiz-adv-x="682" />
<glyph unicode=" "  horiz-adv-x="487" />
<glyph unicode="&#x09;" horiz-adv-x="487" />
<glyph unicode="&#xa0;" horiz-adv-x="487" />
<glyph unicode="!" horiz-adv-x="471" d="M123 0v225h225v-225h-225zM133 1405h205l-31 -954h-143z" />
<glyph unicode="&#x22;" horiz-adv-x="610" d="M49 1405h205l-31 -451h-143zM356 1405h205l-31 -451h-143z" />
<glyph unicode="#" horiz-adv-x="1556" d="M61 408v143h340l80 332h-309v143h342l90 379h170l-90 -379h342l90 379h170l-90 -379h299v-143h-334l-78 -332h301v-143h-335l-97 -408h-168l97 408h-344l-97 -408h-168l97 408h-308zM571 551h342l80 332h-344z" />
<glyph unicode="$" horiz-adv-x="1175" d="M74 416h153q0 -120 87.5 -200.5t228.5 -92.5v530q-192 31 -310 136.5t-118 246.5q0 166 118 273t310 118v201h102v-201q188 -11 302 -121t114 -282h-154q0 109 -71.5 180t-190.5 80v-502q206 -35 331.5 -144.5t125.5 -254.5q0 -169 -126 -280t-331 -123v-203h-102v203 q-211 12 -340 132t-129 304zM279 1036q0 -86 72.5 -150.5t191.5 -86.5v485q-119 -9 -191.5 -77t-72.5 -171zM645 123q132 10 212.5 82t80.5 178q0 89 -80.5 158t-212.5 94v-512z" />
<glyph unicode="%" horiz-adv-x="1658" d="M123 1077q0 -135 96.5 -231t231.5 -96t231 96t96 231t-96 231.5t-231 96.5t-231.5 -96.5t-96.5 -231.5zM266 1077q0 77 54 131t131 54q76 0 130 -54t54 -131t-53.5 -130.5t-130.5 -53.5t-131 54t-54 130zM317 -20l861 1445h143l-860 -1445h-144zM881 328 q0 -135 96 -231.5t231 -96.5t231.5 96.5t96.5 231.5t-96.5 231t-231.5 96t-231 -96t-96 -231zM1024 328q0 76 54 130t130 54q77 0 131 -54t54 -130t-54.5 -130.5t-130.5 -54.5t-130 54t-54 131z" />
<glyph unicode="&#x26;" horiz-adv-x="1435" d="M74 367q0 104 83 211t218 178l-74 71q-57 57 -91 132t-34 143q0 146 106.5 234.5t280.5 88.5q178 0 286.5 -91t108.5 -240q0 -85 -68.5 -176.5t-180.5 -155.5q-65 -34 -68 -35l352 -344q28 54 45 131t17 148h164q0 -100 -30 -209t-79 -185l276 -268h-235l-147 143 q-82 -74 -209 -118.5t-254 -44.5q-210 0 -338.5 106.5t-128.5 280.5zM238 367q0 -109 83.5 -176.5t219.5 -67.5q98 0 195 35t159 92l-410 399q-112 -60 -179.5 -137t-67.5 -145zM340 1102q0 -37 21 -80.5t55 -77.5l116 -113q29 14 105 56q70 40 114 97t44 110 q0 85 -64 136.5t-168 51.5q-100 0 -161.5 -49.5t-61.5 -130.5z" />
<glyph unicode="'" horiz-adv-x="303" d="M49 1405h205l-31 -451h-143z" />
<glyph unicode="(" horiz-adv-x="571" d="M74 700q0 260 65 454.5t260 518.5l123 -71q-170 -287 -227 -468t-57 -434q0 -251 56.5 -430.5t227.5 -468.5l-123 -71q-195 327 -260 521t-65 449z" />
<glyph unicode=")" horiz-adv-x="571" d="M49 -199q171 289 228 469t57 430q0 253 -57 433.5t-228 468.5l123 71q195 -325 260.5 -519.5t65.5 -453.5q0 -255 -65.5 -448.5t-260.5 -521.5z" />
<glyph unicode="*" horiz-adv-x="1044" d="M61 1012l52 155l336 -118l-9 356h164l-8 -356l336 118l51 -155l-342 -103l215 -282l-131 -99l-203 293l-203 -293l-133 99l215 282z" />
<glyph unicode="+" d="M121 440v144h411v440h164v-440h412v-144h-412v-440h-164v440h-411z" />
<glyph unicode="," horiz-adv-x="471" d="M123 0v225h225v-225q0 -101 -62 -163t-163 -62v123q46 0 74 28t28 74h-102z" />
<glyph unicode="-" horiz-adv-x="954" d="M123 420v143h708v-143h-708z" />
<glyph unicode="." horiz-adv-x="471" d="M123 0v225h225v-225h-225z" />
<glyph unicode="/" horiz-adv-x="864" d="M49 -20l623 1445h143l-622 -1445h-144z" />
<glyph unicode="0" d="M102 702q0 347 133 535t379 188t379 -188t133 -535t-133 -534.5t-379 -187.5t-379 187.5t-133 534.5zM266 702q0 -278 90.5 -428.5t257.5 -150.5t258 150.5t91 428.5t-91 429t-258 151t-257.5 -151t-90.5 -429z" />
<glyph unicode="1" horiz-adv-x="841" d="M123 1024v143q131 0 229 65.5t129 172.5h156v-1405h-164v1128q-60 -47 -156 -75.5t-194 -28.5z" />
<glyph unicode="2" d="M121 0v164q361 234 641 475q77 68 124.5 160.5t47.5 175.5q0 138 -87.5 222.5t-232.5 84.5q-154 0 -247 -108t-93 -287h-153q0 243 135 390.5t358 147.5q218 0 351 -123.5t133 -326.5q0 -110 -64.5 -234t-169.5 -217q-96 -83 -238 -188t-276 -193h758v-143h-987z" />
<glyph unicode="3" d="M121 416h153q0 -132 93 -212.5t247 -80.5q159 0 256 79.5t97 209.5q0 121 -92.5 195.5t-243.5 74.5h-123v143h123q132 0 213.5 62t81.5 162q0 104 -86 168.5t-226 64.5q-144 0 -231.5 -90t-87.5 -238h-154q0 212 129.5 341.5t343.5 129.5q213 0 343 -98t130 -258 q0 -101 -57.5 -187t-152.5 -126q114 -41 182.5 -140t68.5 -219q0 -188 -141 -302.5t-373 -114.5q-223 0 -358 119.5t-135 316.5z" />
<glyph unicode="4" d="M100 412v143l578 850h215v-850h235v-143h-235v-412h-164v412h-629zM276 555h453v672z" />
<glyph unicode="5" d="M100 483h154q0 -163 98.5 -261.5t261.5 -98.5q158 0 254.5 100t96.5 264t-96.5 264.5t-254.5 100.5q-101 0 -194 -45t-144 -119l-170 21l87 696h874v-143h-727l-49 -388q63 54 158 87.5t186 33.5q223 0 358 -139.5t135 -368.5t-141 -368t-373 -139t-373 138t-141 365z " />
<glyph unicode="6" d="M100 702q0 215 63.5 379t180.5 254t270 90q185 0 319 -93t169 -247h-158q-28 89 -118 143t-212 54q-158 0 -254 -146t-96 -386q46 112 147 180.5t220 68.5q224 0 360.5 -140.5t136.5 -369.5t-141 -369t-373 -140q-153 0 -270 89.5t-180.5 253.5t-63.5 379zM299 489 q0 -90 28 -161.5t75 -116t104.5 -67.5t120.5 -23q64 0 124 23.5t108 68t77 116.5t29 160t-28.5 160t-76.5 116.5t-107.5 68.5t-123.5 24q-63 0 -121 -23.5t-105 -68t-75.5 -116.5t-28.5 -161z" />
<glyph unicode="7" d="M100 1262v143h1028v-121q-271 -367 -399.5 -679t-128.5 -605h-164q0 291 118.5 597.5t369.5 664.5h-824z" />
<glyph unicode="8" d="M100 387q0 118 73 219.5t192 147.5q-91 41 -147 128t-56 187q0 160 124 258t328 98t328.5 -98t124.5 -258q0 -100 -56 -187t-147 -128q118 -46 191 -147t73 -220q0 -183 -141 -295t-373 -112t-373 112t-141 295zM264 401q0 -126 96 -202t254 -76t254.5 76t96.5 202 t-96.5 203.5t-254.5 77.5t-254 -77.5t-96 -203.5zM326 1055q0 -103 79 -166.5t209 -63.5t209.5 63.5t79.5 166.5t-79 165t-210 62q-130 0 -209 -62t-79 -165z" />
<glyph unicode="9" d="M100 915q0 229 141.5 369.5t372.5 140.5q153 0 270 -90t180.5 -254t63.5 -379t-63.5 -379t-180.5 -253.5t-270 -89.5q-185 0 -318.5 92.5t-168.5 246.5h158q28 -89 117.5 -142.5t211.5 -53.5q158 0 254.5 146.5t96.5 385.5q-46 -112 -147 -180.5t-220 -68.5 q-224 0 -361 140t-137 369zM264 915q0 -88 28.5 -160t76.5 -116.5t107.5 -68t123.5 -23.5q63 0 121 23.5t105 67.5t75.5 116t28.5 161q0 90 -28 162t-75 116t-104.5 67.5t-120.5 23.5q-64 0 -124 -24t-108 -68.5t-77 -116.5t-29 -160z" />
<glyph unicode=":" horiz-adv-x="471" d="M123 0v225h225v-225h-225zM123 799v225h225v-225h-225z" />
<glyph unicode=";" horiz-adv-x="471" d="M123 0v225h225v-225q0 -101 -62 -163t-163 -62v123q46 0 74 28t28 74h-102zM123 799v225h225v-225h-225z" />
<glyph unicode="&#x3c;" d="M121 451v157l987 385v-172l-782 -291l782 -294v-173z" />
<glyph unicode="=" d="M121 211v143h987v-143h-987zM121 670v143h987v-143h-987z" />
<glyph unicode="&#x3e;" d="M121 63v173l782 294l-782 291v172l987 -385v-157z" />
<glyph unicode="?" horiz-adv-x="1062" d="M74 946q5 215 139.5 347t351.5 132q190 0 307 -107t117 -282q0 -59 -20 -113t-52.5 -94.5t-71.5 -78.5t-78 -73t-71.5 -69t-52.5 -74t-20 -83h-152q0 61 19.5 116.5t50.5 97t69 80t76 72.5t69 67.5t50.5 72t19.5 79.5q0 110 -71.5 178t-188.5 68q-148 0 -240.5 -92.5 t-97.5 -243.5h-153zM434 0v225h225v-225h-225z" />
<glyph unicode="@" horiz-adv-x="1886" d="M123 625q0 182 64.5 335t180 259.5t282 165.5t364.5 59q338 0 543.5 -173t205.5 -456q0 -249 -123.5 -401t-324.5 -152q-75 0 -135.5 35t-85.5 92q-47 -61 -114.5 -99t-129.5 -38q-123 0 -197.5 87t-74.5 232q0 110 36 210t92.5 168.5t127 108.5t139.5 40q70 0 131 -48 t90 -126l31 100h170l-152 -512q-6 -18 -6 -35q0 -34 20.5 -52.5t57.5 -18.5q128 0 206 112.5t78 296.5q0 218 -160.5 351.5t-424.5 133.5q-327 0 -527 -185.5t-200 -489.5q0 -272 186 -438.5t492 -166.5q147 0 302 53t261 140l96 -117q-120 -100 -301 -160.5t-358 -60.5 q-251 0 -442 93t-295.5 263.5t-104.5 393.5zM735 571q0 -79 36 -127.5t95 -48.5q118 0 191 105.5t73 277.5q0 79 -36 127.5t-95 48.5q-118 0 -191 -105.5t-73 -277.5z" />
<glyph unicode="A" horiz-adv-x="1441" d="M49 0l578 1405h188l578 -1405h-197l-186 469h-578l-186 -469h-197zM498 633h446l-223 561z" />
<glyph unicode="B" horiz-adv-x="1351" d="M143 0v1405h609q188 0 301.5 -96t113.5 -254q0 -77 -42 -154.5t-109 -124.5q118 -43 190 -147t72 -230q0 -180 -119.5 -289.5t-314.5 -109.5h-701zM328 164h516q113 0 181.5 69t68.5 183q0 116 -68 186t-180 70h-518v-508zM328 836h424q104 0 167.5 55.5t63.5 146.5 t-63.5 147t-167.5 56h-424v-405z" />
<glyph unicode="C" horiz-adv-x="1501" d="M74 702q0 326 188.5 524.5t497.5 198.5q160 0 297 -66.5t232 -189t132 -282.5h-180q-47 169 -179.5 272t-301.5 103q-226 0 -364 -154t-138 -406t138 -405.5t364 -153.5q180 0 314.5 112.5t174.5 295.5h178q-51 -257 -234.5 -414t-432.5 -157q-309 0 -497.5 198.5 t-188.5 523.5z" />
<glyph unicode="D" horiz-adv-x="1388" d="M143 0v1405h502q301 0 485.5 -192.5t184.5 -507.5q0 -316 -184.5 -510.5t-485.5 -194.5h-502zM328 164h317q218 0 351.5 149t133.5 392q0 241 -133.5 388.5t-351.5 147.5h-317v-1077z" />
<glyph unicode="E" horiz-adv-x="1112" d="M143 0v1405h908v-164h-723v-405h649v-164h-649v-508h723v-164h-908z" />
<glyph unicode="F" horiz-adv-x="1112" d="M143 0v1405h908v-164h-723v-405h628v-164h-628v-672h-185z" />
<glyph unicode="G" horiz-adv-x="1519" d="M74 705q0 324 188.5 522t497.5 198q192 0 359 -106.5t249 -280.5l-170 -41q-62 119 -182.5 192t-255.5 73q-226 0 -364 -153.5t-138 -403.5q0 -252 138 -407t364 -155q193 0 328.5 126.5t166.5 334.5h-495v164h686v-63q0 -215 -85 -379.5t-241 -255t-360 -90.5t-360 90.5 t-241 255t-85 379.5z" />
<glyph unicode="H" horiz-adv-x="1392" d="M143 0v1405h185v-569h737v569h184v-1405h-184v672h-737v-672h-185z" />
<glyph unicode="I" horiz-adv-x="471" d="M143 0v1405h185v-1405h-185z" />
<glyph unicode="J" horiz-adv-x="1116" d="M49 416h178q26 -123 108 -198t189 -75q128 0 206.5 108.5t78.5 285.5v868h184v-868q0 -250 -129 -403.5t-340 -153.5q-177 0 -307.5 120t-167.5 316z" />
<glyph unicode="K" horiz-adv-x="1323" d="M143 0v1405h185v-752l688 752h248l-562 -606l572 -799h-213l-479 670l-254 -275v-395h-185z" />
<glyph unicode="L" horiz-adv-x="1112" d="M143 0v1405h185v-1241h723v-164h-908z" />
<glyph unicode="M" horiz-adv-x="1781" d="M143 0v1405h248l500 -1172l500 1172h247v-1405h-184v1180l-493 -1180h-140l-493 1180v-1180h-185z" />
<glyph unicode="N" horiz-adv-x="1462" d="M143 0v1405h203l789 -1149v1149h184v-1405h-205l-786 1147v-1147h-185z" />
<glyph unicode="O" horiz-adv-x="1519" d="M74 705q0 324 188.5 522t497.5 198t497.5 -198t188.5 -522q0 -215 -85 -379.5t-241 -255t-360 -90.5t-360 90.5t-241 255t-85 379.5zM258 705q0 -252 138 -407t364 -155t364 155t138 407q0 250 -138 403.5t-364 153.5t-364 -153.5t-138 -403.5z" />
<glyph unicode="P" horiz-adv-x="1236" d="M143 0v1405h580q198 0 319 -109t121 -288q0 -182 -121 -293t-319 -111h-395v-604h-185zM328 768h395q115 0 185.5 66.5t70.5 173.5q0 104 -70.5 168.5t-185.5 64.5h-395v-473z" />
<glyph unicode="Q" horiz-adv-x="1546" d="M74 705q0 324 188.5 522t497.5 198t497.5 -198t188.5 -522q0 -138 -55 -282t-144 -239q56 -37 156 -37h70v-147q-42 -20 -101 -20q-66 0 -136.5 26.5t-121.5 69.5q-71 -43 -168.5 -69.5t-185.5 -26.5q-204 0 -360 90.5t-241 255t-85 379.5zM258 705q0 -252 138 -407 t364 -155t364 155t138 407q0 250 -138 403.5t-364 153.5t-364 -153.5t-138 -403.5z" />
<glyph unicode="R" horiz-adv-x="1327" d="M143 0v1405h609q186 0 298.5 -101t112.5 -266q0 -145 -90 -244t-239 -118l419 -676h-217l-418 672h-290v-672h-185zM328 836h424q103 0 165 55.5t62 146.5t-62.5 147t-164.5 56h-424v-405z" />
<glyph unicode="S" horiz-adv-x="1341" d="M74 483h174q0 -153 120.5 -246.5t317.5 -93.5q179 0 288 70.5t109 185.5q0 84 -95 141.5t-320 110.5q-269 63 -383.5 151t-114.5 230q0 177 142 285t374 108q198 0 346.5 -111t192.5 -292l-168 -41q-28 126 -130.5 203.5t-240.5 77.5q-149 0 -240.5 -63.5t-91.5 -166.5 q0 -71 81 -119.5t270 -91.5q304 -72 433.5 -169t129.5 -253q0 -189 -160.5 -304t-421.5 -115q-276 0 -444 138t-168 365z" />
<glyph unicode="T" horiz-adv-x="1175" d="M61 1241v164h1053v-164h-434v-1241h-184v1241h-435z" />
<glyph unicode="U" horiz-adv-x="1396" d="M143 526v879h185v-879q0 -170 104.5 -276.5t267.5 -106.5t266 108.5t103 274.5v879h184v-879q0 -237 -156.5 -391.5t-396.5 -154.5q-242 0 -399.5 153.5t-157.5 392.5z" />
<glyph unicode="V" horiz-adv-x="1441" d="M49 1405h197l475 -1194l475 1194h197l-578 -1405h-188z" />
<glyph unicode="W" horiz-adv-x="1806" d="M49 1405h191l309 -1186l264 1186h178l266 -1186l310 1186h190l-395 -1405h-217l-242 1085l-241 -1085h-218z" />
<glyph unicode="X" horiz-adv-x="1425" d="M49 0l555 735l-508 670h230l389 -524l385 524h229l-508 -670l555 -735h-227l-436 590l-437 -590h-227z" />
<glyph unicode="Y" horiz-adv-x="1193" d="M49 1405h203l346 -715l344 715h203l-455 -924v-481h-184v481z" />
<glyph unicode="Z" horiz-adv-x="1175" d="M61 0v143l809 1098h-809v164h1053v-145l-807 -1096h807v-164h-1053z" />
<glyph unicode="[" horiz-adv-x="692" d="M123 -195v1786h446v-143h-282v-1499h282v-144h-446z" />
<glyph unicode="\" horiz-adv-x="864" d="M49 1425h144l622 -1445h-143z" />
<glyph unicode="]" horiz-adv-x="618" d="M49 -51h283v1499h-283v143h447v-1786h-447v144z" />
<glyph unicode="^" d="M100 571l439 834h147l442 -834h-184l-330 641l-329 -641h-185z" />
<glyph unicode="_" horiz-adv-x="1175" d="M61 0h1053v-143h-1053v143z" />
<glyph unicode="`" d="M365 1405h204l117 -272h-158z" />
<glyph unicode="a" horiz-adv-x="1224" d="M74 512q0 239 137.5 385.5t361.5 146.5q104 0 204.5 -53t160.5 -139v172h164v-1024h-164v172q-60 -86 -160.5 -139t-204.5 -53q-224 0 -361.5 146.5t-137.5 385.5zM238 512q0 -175 97 -282t255 -107q157 0 252.5 107t95.5 282t-95.5 282t-252.5 107q-158 0 -255 -107 t-97 -282z" />
<glyph unicode="b" horiz-adv-x="1241" d="M123 0v1405h164v-555q60 88 162.5 141t209.5 53q229 0 368.5 -146.5t139.5 -385.5t-139.5 -385.5t-368.5 -146.5q-107 0 -209.5 53t-162.5 141v-174h-164zM287 512q0 -175 98 -282t258 -107q163 0 262 107t99 282t-99 282t-262 107q-160 0 -258 -107t-98 -282z" />
<glyph unicode="c" horiz-adv-x="1163" d="M74 512q0 239 141 385.5t373 146.5q196 0 333 -117t166 -309h-155q-23 128 -117.5 205.5t-226.5 77.5q-158 0 -254 -107t-96 -282t96 -282t254 -107q133 0 228 80.5t118 212.5h156q-29 -196 -167 -316t-335 -120q-232 0 -373 146.5t-141 385.5z" />
<glyph unicode="d" horiz-adv-x="1241" d="M74 512q0 239 139.5 385.5t368.5 146.5q107 0 209.5 -53t162.5 -141v555h164v-1405h-164v174q-60 -88 -162.5 -141t-209.5 -53q-229 0 -368.5 146.5t-139.5 385.5zM238 512q0 -175 98.5 -282t261.5 -107q160 0 258 107t98 282t-98 282t-258 107q-163 0 -261.5 -107 t-98.5 -282z" />
<glyph unicode="e" horiz-adv-x="1175" d="M74 512q0 239 141 385.5t373 146.5t373 -150.5t141 -397.5l-17 -17h-845q6 -160 101.5 -258t246.5 -98q114 0 203.5 62t123.5 163h164q-50 -166 -184.5 -267t-306.5 -101q-232 0 -373 146.5t-141 385.5zM248 623h680q-29 133 -117.5 205.5t-222.5 72.5t-222.5 -72.5 t-117.5 -205.5z" />
<glyph unicode="f" horiz-adv-x="679" d="M61 881v143h164v115q0 129 77.5 207.5t205.5 78.5q65 0 110 -20v-129h-98q-70 0 -100.5 -31.5t-30.5 -105.5v-115h229v-143h-229v-881h-164v881h-164z" />
<glyph unicode="g" horiz-adv-x="1204" d="M74 522q0 235 134.5 378.5t354.5 143.5q103 0 200.5 -50.5t154.5 -133.5v164h163v-913q0 -246 -130.5 -379t-372.5 -133q-194 0 -321.5 99t-168.5 282h168q32 -114 116 -176t206 -62q163 0 251.5 96t88.5 273v71q-56 -82 -153.5 -132t-201.5 -50q-220 0 -354.5 143.5 t-134.5 378.5zM238 522q0 -170 94 -274.5t248 -104.5q152 0 245 104.5t93 274.5t-93 274.5t-245 104.5q-154 0 -248 -104.5t-94 -274.5z" />
<glyph unicode="h" horiz-adv-x="1155" d="M123 0v1405h164v-512q54 68 142 109.5t177 41.5q192 0 309 -112.5t117 -296.5v-635h-164v606q0 132 -80 213.5t-210 81.5t-210.5 -81.5t-80.5 -213.5v-606h-164z" />
<glyph unicode="i" horiz-adv-x="409" d="M123 0v1024h164v-1024h-164zM123 1180v225h164v-225h-164z" />
<glyph unicode="j" horiz-adv-x="440" d="M-70 -254h93q59 0 95 39t36 102v1137h163v-1137q0 -130 -78.5 -209t-207.5 -79q-53 0 -101 20v127zM154 1178v227h163v-227h-163z" />
<glyph unicode="k" horiz-adv-x="1062" d="M123 0v1405h164v-825l442 444h229l-428 -424l484 -600h-209l-391 485l-127 -125v-360h-164z" />
<glyph unicode="l" horiz-adv-x="409" d="M123 0v1405h164v-1405h-164z" />
<glyph unicode="m" horiz-adv-x="1646" d="M123 0v1024h164v-115q43 61 115 98t147 37q82 0 162 -42.5t129 -112.5q49 70 134 112.5t175 42.5q169 0 272 -92.5t103 -244.5v-707h-164v690q0 95 -62 153t-165 58t-165.5 -58t-62.5 -153v-690h-164v690q0 95 -62 153t-165 58t-165 -58t-62 -153v-690h-164z" />
<glyph unicode="n" horiz-adv-x="1155" d="M123 0v1024h164v-131q54 68 142 109.5t177 41.5q192 0 309 -112.5t117 -296.5v-635h-164v606q0 132 -80 213.5t-210 81.5t-210.5 -81.5t-80.5 -213.5v-606h-164z" />
<glyph unicode="o" horiz-adv-x="1175" d="M74 512q0 239 141 385.5t373 146.5t373 -146.5t141 -385.5t-141 -385.5t-373 -146.5t-373 146.5t-141 385.5zM238 512q0 -175 96 -282t254 -107t254 107t96 282t-96 282t-254 107t-254 -107t-96 -282z" />
<glyph unicode="p" horiz-adv-x="1241" d="M123 -381v1405h164v-174q60 88 163 141t212 53q227 0 366 -146.5t139 -385.5t-139 -385.5t-366 -146.5q-109 0 -212 53t-163 141v-555h-164zM287 512q0 -175 98.5 -282t259.5 -107t260 107t99 282t-99 282t-260 107t-259.5 -107t-98.5 -282z" />
<glyph unicode="q" horiz-adv-x="1241" d="M74 512q0 239 139.5 385.5t368.5 146.5q107 0 209.5 -53t162.5 -141v174h164v-1405h-164v555q-58 -88 -160.5 -141t-211.5 -53q-229 0 -368.5 146.5t-139.5 385.5zM238 512q0 -175 98.5 -282t261.5 -107q160 0 258 107t98 282t-98 282t-258 107q-74 0 -148.5 -31.5 t-121.5 -83.5q-40 -44 -65 -120t-25 -154z" />
<glyph unicode="r" horiz-adv-x="724" d="M123 0v1024h164v-141q122 161 293 161q51 0 84 -20v-123h-70q-138 0 -222.5 -83.5t-84.5 -219.5v-598h-164z" />
<glyph unicode="s" horiz-adv-x="1034" d="M74 348h153q3 -101 83.5 -163t209.5 -62q126 0 202.5 45t76.5 119q0 65 -58.5 100.5t-230.5 75.5q-212 47 -291.5 108.5t-79.5 178.5q0 132 104.5 213t276.5 81q138 0 248.5 -71.5t151.5 -188.5l-150 -36q-23 69 -92 111t-158 42q-98 0 -157.5 -38t-59.5 -101 q0 -53 52 -85.5t190 -66.5q237 -50 326.5 -117.5t89.5 -197.5q0 -141 -121.5 -228t-319.5 -87t-320.5 101t-125.5 267z" />
<glyph unicode="t" horiz-adv-x="759" d="M61 881v143h164v381h164v-381h299v-143h-299v-619q0 -63 36 -101t95 -38h178v-123q-85 -20 -168 -20q-137 0 -221 77.5t-84 204.5v619h-164z" />
<glyph unicode="u" horiz-adv-x="1155" d="M123 389v635h164v-606q0 -132 80.5 -213.5t210.5 -81.5t210 81.5t80 213.5v606h164v-1024h-164v131q-54 -68 -142 -109.5t-177 -41.5q-192 0 -309 112.5t-117 296.5z" />
<glyph unicode="v" horiz-adv-x="1071" d="M49 1024h176l310 -842l311 842h176l-410 -1024h-153z" />
<glyph unicode="w" horiz-adv-x="1568" d="M49 1024h172l260 -838l230 838h149l227 -838l261 838h172l-353 -1024h-168l-215 797l-215 -797h-168z" />
<glyph unicode="x" horiz-adv-x="1075" d="M49 0l395 539l-358 485h201l252 -354l249 354h199l-354 -485l393 -539h-201l-286 408l-289 -408h-201z" />
<glyph unicode="y" horiz-adv-x="1042" d="M49 1024h174l299 -752l295 752h176l-553 -1405h-176l174 442z" />
<glyph unicode="z" horiz-adv-x="991" d="M61 0v109l646 772h-646v143h869v-109l-645 -772h645v-143h-869z" />
<glyph unicode="{" horiz-adv-x="724" d="M61 627v143q113 0 181.5 70.5t68.5 187.5v234q0 149 100 239t265 90v-143q-91 0 -146 -50.5t-55 -135.5v-234q0 -106 -55 -196.5t-146 -133.5q91 -41 146 -131t55 -196v-234q0 -83 55 -135t146 -53v-144q-164 0 -264.5 91.5t-100.5 240.5v234q0 115 -68.5 185.5 t-181.5 70.5z" />
<glyph unicode="|" horiz-adv-x="409" d="M123 -195v1786h164v-1786h-164z" />
<glyph unicode="}" horiz-adv-x="724" d="M49 -51q91 1 146 53t55 135v234q0 106 55 196t146 131q-91 43 -146 133.5t-55 196.5v234q0 85 -55 135.5t-146 50.5v143q165 0 265 -90t100 -239v-234q0 -117 68.5 -187.5t181.5 -70.5v-143q-113 0 -181.5 -70.5t-68.5 -185.5v-234q0 -149 -100.5 -240.5t-264.5 -91.5 v144z" />
<glyph unicode="~" horiz-adv-x="1419" d="M123 377q0 154 95.5 248t252.5 94q66 0 126 -22.5t105.5 -55t88.5 -64.5t92.5 -54.5t99.5 -22.5q79 0 127.5 54.5t48.5 143.5h137q0 -154 -91 -248t-242 -94q-70 0 -132 22.5t-106.5 55t-86 64.5t-89.5 54.5t-98 22.5q-86 0 -138.5 -54.5t-52.5 -143.5h-137z" />
<glyph unicode="&#xa1;" horiz-adv-x="471" d="M123 799v225h225v-225h-225zM133 -381l31 954h143l31 -954h-205z" />
<glyph unicode="&#xa2;" horiz-adv-x="1163" d="M74 512q0 239 141 385.5t373 146.5q64 0 114 -12l60 215h106l-69 -246q110 -46 189 -151t99 -232h-155q-12 73 -59.5 140t-112.5 102l-211 -735q8 -2 39 -2q133 0 228 80.5t118 212.5h156q-29 -196 -167 -316t-335 -120q-20 0 -78 4l-64 -220h-106l70 244 q-151 51 -243.5 190t-92.5 314zM238 512q0 -124 59 -224t154 -138l211 745q-30 6 -74 6q-158 0 -254 -107t-96 -282z" />
<glyph unicode="&#xa3;" d="M92 90q111 97 178.5 197.5t67.5 169.5q0 82 -47 184h-191v102h144q-34 73 -54 148t-20 125q0 183 109 295t288 112q177 0 285.5 -112t108.5 -295h-154q0 118 -66.5 191t-173.5 73q-104 0 -168.5 -73t-64.5 -191q0 -35 25.5 -111t66.5 -162h354v-102h-313q35 -100 35 -184 q0 -54 -27.5 -121.5t-71.5 -124.5q60 4 133.5 -17.5t144.5 -46t120 -24.5q64 0 136 23.5t126 62.5l84 -117q-70 -51 -165.5 -81.5t-180.5 -30.5q-80 0 -206 44t-177 44q-47 0 -107 -28t-112 -73z" />
<glyph unicode="&#xa4;" horiz-adv-x="1181" d="M123 270l162 162q-37 50 -59.5 113.5t-22.5 120.5t22.5 120t59.5 113l-162 162l72 74l163 -164q45 33 109 53t125 20t124 -20t107 -53l164 164l72 -74l-162 -162q38 -47 61 -111.5t23 -121.5q0 -58 -23 -122.5t-61 -111.5l162 -162l-72 -73l-164 163q-44 -33 -107 -53 t-124 -20t-125 20t-109 53l-163 -163zM367 666q0 -106 62 -171t163 -65t163 65t62 171t-62 170.5t-163 64.5t-163 -64.5t-62 -170.5z" />
<glyph unicode="&#xa5;" horiz-adv-x="1193" d="M49 1405h203l346 -715l344 715h203l-225 -459h192v-102h-244l-139 -283h383v-102h-422v-459h-184v459h-422v102h383l-141 283h-242v102h192z" />
<glyph unicode="&#xa6;" horiz-adv-x="409" d="M123 -195v736h164v-736h-164zM123 868v723h164v-723h-164z" />
<glyph unicode="&#xa7;" horiz-adv-x="1177" d="M121 786q0 78 57 161t150 140q-41 37 -66.5 92t-25.5 109q0 149 96 240.5t254 91.5q161 0 262 -100t106 -263h-170q-6 98 -58 158t-132 60q-85 0 -135.5 -44t-50.5 -116q0 -37 19.5 -73.5t51.5 -59.5l254 -152q146 -82 235 -187t89 -196q0 -78 -56 -165t-147 -152 q48 -45 77.5 -107t29.5 -119q0 -144 -103 -231.5t-272 -87.5q-158 0 -262.5 102t-116.5 269h172q9 -98 63 -158.5t133 -60.5q92 0 148.5 44.5t56.5 116.5q0 32 -19 67t-50 60l-369 250q-99 67 -160 153t-61 158zM289 817q0 -48 28.5 -95.5t75.5 -78.5l363 -233 q60 34 96.5 90t36.5 116q0 49 -50 109.5t-132 110.5l-281 172q-62 -32 -99.5 -84.5t-37.5 -106.5z" />
<glyph unicode="&#xa8;" d="M311 1133v204h205v-204h-205zM713 1133v204h205v-204h-205z" />
<glyph unicode="&#xa9;" horiz-adv-x="1830" d="M121 700q0 161 62.5 306.5t168.5 250t253 166.5t310 62t310.5 -62t253.5 -166.5t168.5 -250t62.5 -306.5q0 -215 -106 -395t-288.5 -284.5t-400.5 -104.5q-163 0 -310 61.5t-253 166.5t-168.5 250t-62.5 306zM285 700q0 -175 83.5 -322.5t228.5 -233t318 -85.5 q130 0 247 50.5t201 136t133.5 204.5t49.5 250t-49.5 250t-133.5 204.5t-201 136t-247 50.5q-173 0 -318 -85.5t-228.5 -233t-83.5 -322.5zM502 700q0 192 113.5 309t299.5 117q150 0 259.5 -88.5t140.5 -234.5h-156q-23 81 -90 130.5t-154 49.5q-112 0 -180.5 -77.5 t-68.5 -205.5q0 -127 68 -204.5t181 -77.5q86 0 153.5 50t90.5 132h156q-29 -146 -139 -236t-261 -90q-186 0 -299.5 117t-113.5 309z" />
<glyph unicode="&#xaa;" horiz-adv-x="1224" d="M74 512q0 239 137.5 385.5t361.5 146.5q104 0 204.5 -53t160.5 -139v172h164v-1024h-164v172q-60 -86 -160.5 -139t-204.5 -53q-224 0 -361.5 146.5t-137.5 385.5zM238 512q0 -175 97 -282t255 -107q157 0 252.5 107t95.5 282t-95.5 282t-252.5 107q-158 0 -255 -107 t-97 -282z" />
<glyph unicode="&#xab;" horiz-adv-x="968" d="M123 510l262 362h145l-264 -362l262 -363h-143zM438 510l262 362h146l-264 -362l262 -363h-144z" />
<glyph unicode="&#xac;" d="M121 760v143h987v-692h-164v549h-823z" />
<glyph unicode="&#xad;" horiz-adv-x="954" d="M123 420v143h708v-143h-708z" />
<glyph unicode="&#xae;" horiz-adv-x="1830" d="M121 700q0 161 62.5 306.5t168.5 250t253 166.5t310 62t310.5 -62t253.5 -166.5t168.5 -250t62.5 -306.5q0 -215 -106 -395t-288.5 -284.5t-400.5 -104.5q-163 0 -310 61.5t-253 166.5t-168.5 250t-62.5 306zM285 700q0 -175 83.5 -322.5t228.5 -233t318 -85.5 q130 0 247 50.5t201 136t133.5 204.5t49.5 250t-49.5 250t-133.5 204.5t-201 136t-247 50.5q-173 0 -318 -85.5t-228.5 -233t-83.5 -322.5zM608 279v845h361q115 0 185.5 -64.5t70.5 -168.5q0 -76 -44 -137t-116 -84l231 -391h-172l-225 376h-127v-376h-164zM772 799h197 q42 0 68 25t26 65q0 41 -25.5 66.5t-68.5 25.5h-197v-182z" />
<glyph unicode="&#xaf;" d="M260 1133v143h709v-143h-709z" />
<glyph unicode="&#xb0;" horiz-adv-x="925" d="M123 1096q0 131 96.5 230t243.5 99q148 0 244 -99.5t96 -229.5q0 -131 -96.5 -230.5t-243.5 -99.5q-148 0 -244 100t-96 230zM287 1096q0 -83 54 -135t122 -52q69 0 122.5 52.5t53.5 134.5q0 83 -54 134.5t-122 51.5q-69 0 -122.5 -52t-53.5 -134z" />
<glyph unicode="&#xb1;" d="M121 0v143h987v-143h-987zM121 592v143h409v289h164v-289h414v-143h-414v-289h-164v289h-409z" />
<glyph unicode="&#xb2;" d="M121 0v164q361 234 641 475q77 68 124.5 160.5t47.5 175.5q0 138 -87.5 222.5t-232.5 84.5q-154 0 -247 -108t-93 -287h-153q0 243 135 390.5t358 147.5q218 0 351 -123.5t133 -326.5q0 -110 -64.5 -234t-169.5 -217q-96 -83 -238 -188t-276 -193h758v-143h-987z" />
<glyph unicode="&#xb3;" d="M121 416h153q0 -132 93 -212.5t247 -80.5q159 0 256 79.5t97 209.5q0 121 -92.5 195.5t-243.5 74.5h-123v143h123q132 0 213.5 62t81.5 162q0 104 -86 168.5t-226 64.5q-144 0 -231.5 -90t-87.5 -238h-154q0 212 129.5 341.5t343.5 129.5q213 0 343 -98t130 -258 q0 -101 -57.5 -187t-152.5 -126q114 -41 182.5 -140t68.5 -219q0 -188 -141 -302.5t-373 -114.5q-223 0 -358 119.5t-135 316.5z" />
<glyph unicode="&#xb4;" d="M545 1133l125 272h204l-172 -272h-157z" />
<glyph unicode="&#xb6;" d="M100 1065q0 167 104.5 269t274.5 102h629v-136h-137v-1493h-135v1493h-222v-1493h-135v893q-170 0 -274.5 100.5t-104.5 264.5z" />
<glyph unicode="&#xb7;" horiz-adv-x="471" d="M123 399v226h225v-226h-225z" />
<glyph unicode="&#xb8;" d="M383 -225q0 63 53.5 133t141.5 121h141q-75 -53 -120.5 -108t-45.5 -95t28 -64t72 -24l78 2v-109q-59 -32 -149 -32q-89 0 -144 48.5t-55 127.5z" />
<glyph unicode="&#xb9;" horiz-adv-x="841" d="M123 1024v143q131 0 229 65.5t129 172.5h156v-1405h-164v1128q-60 -47 -156 -75.5t-194 -28.5z" />
<glyph unicode="&#xba;" horiz-adv-x="1175" d="M74 512q0 239 141 385.5t373 146.5t373 -146.5t141 -385.5t-141 -385.5t-373 -146.5t-373 146.5t-141 385.5zM238 512q0 -175 96 -282t254 -107t254 107t96 282t-96 282t-254 107t-254 -107t-96 -282z" />
<glyph unicode="&#xbb;" horiz-adv-x="968" d="M123 872h145l262 -362l-262 -363h-143l262 363zM438 872h146l262 -362l-262 -363h-144l262 363z" />
<glyph unicode="&#xbc;" horiz-adv-x="1566" d="M61 1143v121q46 4 71 8t51.5 12.5t40.5 23t27 38t23 59.5h125v-858h-133v643q-13 -7 -27.5 -13.5t-26.5 -10.5t-28.5 -7.5t-26 -5.5t-27 -4t-24 -2.5t-24.5 -2t-21 -1.5zM242 -20l860 1445h143l-860 -1445h-143zM850 240v106l354 506h154v-492h147v-120h-147v-240h-133 v240h-375zM1006 360h219v312z" />
<glyph unicode="&#xbd;" horiz-adv-x="1669" d="M61 1143v121q46 4 71 8t51.5 12.5t40.5 23t27 38t23 59.5h125v-858h-133v643q-13 -7 -27.5 -13.5t-26.5 -10.5t-28.5 -7.5t-26 -5.5t-27 -4t-24 -2.5t-24.5 -2t-21 -1.5zM258 -20l860 1445h144l-861 -1445h-143zM983 0v125q288 184 397 281q95 82 95 182q0 71 -50 116.5 t-116 45.5q-199 0 -199 -232h-125q0 172 89 262t235 90q128 0 213.5 -83t85.5 -199q0 -150 -142 -277q-20 -18 -42 -35t-55.5 -40t-49 -33.5t-64.5 -42.5t-59 -39h412v-121h-625z" />
<glyph unicode="&#xbe;" horiz-adv-x="1771" d="M61 840h127q17 -84 70 -127t127 -43q79 0 138 40.5t59 108.5q0 67 -54.5 102t-132.5 35h-90v121h90q75 0 119.5 33.5t44.5 77.5q0 47 -44.5 82t-127.5 35q-79 0 -125.5 -47.5t-52.5 -143.5h-125q6 148 89.5 229.5t213.5 81.5q79 0 146 -24t112 -77t45 -126 q0 -113 -110 -180q65 -32 100 -87.5t35 -121.5q0 -105 -88 -182.5t-242 -77.5q-125 0 -214 76t-110 215zM432 -20l860 1445h144l-861 -1445h-143zM1055 240v106l354 506h154v-492h147v-120h-147v-240h-133v240h-375zM1210 360h220v312z" />
<glyph unicode="&#xbf;" horiz-adv-x="1161" d="M123 -12q0 59 20 113t52.5 94.5t71.5 78.5t78 73t71.5 69t52.5 74t20 83h152q0 -61 -19.5 -116.5t-50.5 -97t-69 -80t-76 -72.5t-69 -67.5t-50.5 -72t-19.5 -79.5q0 -110 71.5 -178t188.5 -68q148 0 240.5 92.5t97.5 243.5h153q-5 -215 -139.5 -347t-351.5 -132 q-190 0 -307 107t-117 282zM453 799v225h225v-225h-225z" />
<glyph unicode="&#xc0;" horiz-adv-x="1441" d="M49 0l578 1405h188l578 -1405h-197l-186 469h-578l-186 -469h-197zM471 1786h205l117 -273h-158zM498 633h446l-223 561z" />
<glyph unicode="&#xc1;" horiz-adv-x="1441" d="M49 0l578 1405h188l578 -1405h-197l-186 469h-578l-186 -469h-197zM498 633h446l-223 561zM651 1513l125 273h205l-172 -273h-158z" />
<glyph unicode="&#xc2;" horiz-adv-x="1441" d="M49 0l578 1405h188l578 -1405h-197l-186 469h-578l-186 -469h-197zM455 1513l186 242h160l186 -242h-174l-80 105h-24l-80 -105h-174zM498 633h446l-223 561z" />
<glyph unicode="&#xc3;" horiz-adv-x="1441" d="M49 0l578 1405h188l578 -1405h-197l-186 469h-578l-186 -469h-197zM408 1516q0 105 56.5 169t149.5 64q46 0 88.5 -19t69.5 -42.5t62 -42.5t69 -19q40 0 64 30.5t24 80.5h99q0 -104 -55 -169t-144 -65q-51 0 -94 19.5t-68.5 43t-59 43t-67.5 19.5q-43 0 -68.5 -30.5 t-25.5 -81.5h-100zM498 633h446l-223 561z" />
<glyph unicode="&#xc4;" horiz-adv-x="1441" d="M49 0l578 1405h188l578 -1405h-197l-186 469h-578l-186 -469h-197zM418 1513v205h205v-205h-205zM498 633h446l-223 561zM819 1513v205h205v-205h-205z" />
<glyph unicode="&#xc5;" horiz-adv-x="1441" d="M49 0l578 1405h188l578 -1405h-197l-186 469h-578l-186 -469h-197zM498 633h446l-223 561zM541 1683q0 75 52.5 128t127.5 53t127.5 -53t52.5 -128q0 -74 -52.5 -127t-127.5 -53t-127.5 53t-52.5 127zM653 1683q0 -27 20.5 -47t47.5 -20q29 0 48 20t19 47q0 29 -19 48.5 t-48 19.5q-28 0 -48 -19.5t-20 -48.5z" />
<glyph unicode="&#xc6;" horiz-adv-x="1781" d="M49 0l578 1405h1093v-164h-723v-405h650v-164h-650v-508h723v-164h-907v469h-381l-186 -469h-197zM498 633h315v608h-74z" />
<glyph unicode="&#xc7;" horiz-adv-x="1501" d="M74 702q0 326 188.5 524.5t497.5 198.5q160 0 297 -66.5t232 -189t132 -282.5h-180q-47 169 -179.5 272t-301.5 103q-226 0 -364 -154t-138 -406t138 -405.5t364 -153.5q180 0 314.5 112.5t174.5 295.5h178q-49 -246 -219.5 -400.5t-404.5 -168.5q-105 -91 -105 -156 q0 -39 28 -63.5t73 -24.5l78 2v-109q-59 -32 -150 -32q-89 0 -144 48.5t-55 127.5q0 51 35.5 107t95.5 104q-268 32 -426.5 225.5t-158.5 490.5z" />
<glyph unicode="&#xc8;" horiz-adv-x="1112" d="M143 0v1405h908v-164h-723v-405h649v-164h-649v-508h723v-164h-908zM348 1786h205l117 -273h-158z" />
<glyph unicode="&#xc9;" horiz-adv-x="1112" d="M143 0v1405h908v-164h-723v-405h649v-164h-649v-508h723v-164h-908zM528 1513l125 273h205l-172 -273h-158z" />
<glyph unicode="&#xca;" horiz-adv-x="1112" d="M143 0v1405h908v-164h-723v-405h649v-164h-649v-508h723v-164h-908zM332 1513l186 242h160l186 -242h-174l-80 105h-24l-80 -105h-174z" />
<glyph unicode="&#xcb;" horiz-adv-x="1112" d="M143 0v1405h908v-164h-723v-405h649v-164h-649v-508h723v-164h-908zM295 1513v205h205v-205h-205zM696 1513v205h205v-205h-205z" />
<glyph unicode="&#xcc;" horiz-adv-x="471" d="M-14 1786h204l117 -273h-157zM143 0v1405h185v-1405h-185z" />
<glyph unicode="&#xcd;" horiz-adv-x="471" d="M143 0v1405h185v-1405h-185zM166 1513l125 273h205l-172 -273h-158z" />
<glyph unicode="&#xce;" horiz-adv-x="471" d="M-31 1513l187 242h159l187 -242h-174l-80 105h-25l-80 -105h-174zM143 0v1405h185v-1405h-185z" />
<glyph unicode="&#xcf;" horiz-adv-x="471" d="M-68 1513v205h205v-205h-205zM143 0v1405h185v-1405h-185zM334 1513v205h205v-205h-205z" />
<glyph unicode="&#xd0;" horiz-adv-x="1388" d="M-53 633v143h196v629h502q301 0 485.5 -192.5t184.5 -507.5q0 -316 -184.5 -510.5t-485.5 -194.5h-502v633h-196zM328 164h317q218 0 351.5 149t133.5 392q0 241 -133.5 388.5t-351.5 147.5h-317v-465h327v-143h-327v-469z" />
<glyph unicode="&#xd1;" horiz-adv-x="1462" d="M143 0v1405h203l789 -1149v1149h184v-1405h-205l-786 1147v-1147h-185zM418 1516q0 105 57 169t150 64q38 0 72 -12.5t59.5 -30.5t49.5 -36.5t51.5 -31t55.5 -12.5q40 0 64 30.5t24 80.5h99q0 -104 -55 -169t-144 -65q-51 0 -94 19.5t-68.5 43t-59 43t-67.5 19.5 q-43 0 -68.5 -30.5t-25.5 -81.5h-100z" />
<glyph unicode="&#xd2;" horiz-adv-x="1519" d="M74 705q0 324 188.5 522t497.5 198t497.5 -198t188.5 -522q0 -215 -85 -379.5t-241 -255t-360 -90.5t-360 90.5t-241 255t-85 379.5zM258 705q0 -252 138 -407t364 -155t364 155t138 407q0 250 -138 403.5t-364 153.5t-364 -153.5t-138 -403.5zM510 1786h205l116 -273 h-157z" />
<glyph unicode="&#xd3;" horiz-adv-x="1519" d="M74 705q0 324 188.5 522t497.5 198t497.5 -198t188.5 -522q0 -215 -85 -379.5t-241 -255t-360 -90.5t-360 90.5t-241 255t-85 379.5zM258 705q0 -252 138 -407t364 -155t364 155t138 407q0 250 -138 403.5t-364 153.5t-364 -153.5t-138 -403.5zM690 1513l125 273h205 l-172 -273h-158z" />
<glyph unicode="&#xd4;" horiz-adv-x="1519" d="M74 705q0 324 188.5 522t497.5 198t497.5 -198t188.5 -522q0 -215 -85 -379.5t-241 -255t-360 -90.5t-360 90.5t-241 255t-85 379.5zM258 705q0 -252 138 -407t364 -155t364 155t138 407q0 250 -138 403.5t-364 153.5t-364 -153.5t-138 -403.5zM494 1513l186 242h160 l186 -242h-174l-80 105h-24l-80 -105h-174z" />
<glyph unicode="&#xd5;" horiz-adv-x="1519" d="M74 705q0 324 188.5 522t497.5 198t497.5 -198t188.5 -522q0 -215 -85 -379.5t-241 -255t-360 -90.5t-360 90.5t-241 255t-85 379.5zM258 705q0 -252 138 -407t364 -155t364 155t138 407q0 250 -138 403.5t-364 153.5t-364 -153.5t-138 -403.5zM446 1516q0 105 57 169 t150 64q46 0 88.5 -19t69.5 -42.5t62 -42.5t69 -19q40 0 64 30.5t24 80.5h98q0 -105 -54.5 -169.5t-143.5 -64.5q-51 0 -94 19.5t-68.5 43t-59.5 43t-67 19.5q-43 0 -68.5 -30.5t-25.5 -81.5h-101z" />
<glyph unicode="&#xd6;" horiz-adv-x="1519" d="M74 705q0 324 188.5 522t497.5 198t497.5 -198t188.5 -522q0 -215 -85 -379.5t-241 -255t-360 -90.5t-360 90.5t-241 255t-85 379.5zM258 705q0 -252 138 -407t364 -155t364 155t138 407q0 250 -138 403.5t-364 153.5t-364 -153.5t-138 -403.5zM457 1513v205h205v-205 h-205zM858 1513v205h205v-205h-205z" />
<glyph unicode="&#xd7;" d="M102 117l398 395l-398 397l117 117l395 -397l396 397l116 -117l-395 -397l395 -395l-116 -117l-396 397l-395 -397z" />
<glyph unicode="&#xd8;" horiz-adv-x="1519" d="M74 705q0 324 188.5 522t497.5 198q175 0 311 -65l51 84h164l-94 -158q121 -95 187.5 -244.5t66.5 -336.5q0 -215 -85 -379.5t-241 -255t-360 -90.5q-175 0 -311 65l-52 -84h-164l95 158q-121 96 -187.5 247t-66.5 339zM258 705q0 -135 42.5 -247t119.5 -186l563 940 q-100 50 -223 50q-226 0 -364 -153.5t-138 -403.5zM537 193q100 -50 223 -50q226 0 364 155t138 407q0 272 -162 428z" />
<glyph unicode="&#xd9;" horiz-adv-x="1396" d="M143 526v879h185v-879q0 -170 104.5 -276.5t267.5 -106.5t266 108.5t103 274.5v879h184v-879q0 -237 -156.5 -391.5t-396.5 -154.5q-242 0 -399.5 153.5t-157.5 392.5zM449 1786h204l117 -273h-158z" />
<glyph unicode="&#xda;" horiz-adv-x="1396" d="M143 526v879h185v-879q0 -170 104.5 -276.5t267.5 -106.5t266 108.5t103 274.5v879h184v-879q0 -237 -156.5 -391.5t-396.5 -154.5q-242 0 -399.5 153.5t-157.5 392.5zM629 1513l125 273h204l-172 -273h-157z" />
<glyph unicode="&#xdb;" horiz-adv-x="1396" d="M143 526v879h185v-879q0 -170 104.5 -276.5t267.5 -106.5t266 108.5t103 274.5v879h184v-879q0 -237 -156.5 -391.5t-396.5 -154.5q-242 0 -399.5 153.5t-157.5 392.5zM432 1513l186 242h160l187 -242h-174l-80 105h-25l-80 -105h-174z" />
<glyph unicode="&#xdc;" horiz-adv-x="1396" d="M143 526v879h185v-879q0 -170 104.5 -276.5t267.5 -106.5t266 108.5t103 274.5v879h184v-879q0 -237 -156.5 -391.5t-396.5 -154.5q-242 0 -399.5 153.5t-157.5 392.5zM395 1513v205h205v-205h-205zM797 1513v205h204v-205h-204z" />
<glyph unicode="&#xdd;" horiz-adv-x="1193" d="M49 1405h203l346 -715l344 715h203l-455 -924v-481h-184v481zM528 1513l125 273h205l-172 -273h-158z" />
<glyph unicode="&#xde;" horiz-adv-x="1216" d="M123 0v1405h184v-301h395q198 0 319.5 -109.5t121.5 -287.5q0 -181 -121.5 -292.5t-319.5 -111.5h-395v-303h-184zM307 467h395q115 0 185.5 66.5t70.5 173.5q0 104 -70.5 168.5t-185.5 64.5h-395v-473z" />
<glyph unicode="&#xdf;" horiz-adv-x="1138" d="M123 0v1051q0 169 114 271.5t302 102.5q187 0 301 -98.5t114 -259.5q0 -83 -43 -162.5t-114 -126.5q121 -43 194.5 -149.5t73.5 -237.5q0 -184 -119.5 -296.5t-314.5 -112.5q-150 0 -234 38v125h234q113 0 181.5 72.5t68.5 190.5q0 120 -68 193t-180 73h-236v164h142 q104 0 167.5 59t63.5 154t-63.5 153t-167.5 58t-168 -58t-64 -153v-1051h-184z" />
<glyph unicode="&#xe0;" horiz-adv-x="1224" d="M74 512q0 239 137.5 385.5t361.5 146.5q104 0 204.5 -53t160.5 -139v172h164v-1024h-164v172q-60 -86 -160.5 -139t-204.5 -53q-224 0 -361.5 146.5t-137.5 385.5zM238 512q0 -175 97 -282t255 -107q157 0 252.5 107t95.5 282t-95.5 282t-252.5 107q-158 0 -255 -107 t-97 -282zM381 1405h205l116 -272h-157z" />
<glyph unicode="&#xe1;" horiz-adv-x="1224" d="M74 512q0 239 137.5 385.5t361.5 146.5q104 0 204.5 -53t160.5 -139v172h164v-1024h-164v172q-60 -86 -160.5 -139t-204.5 -53q-224 0 -361.5 146.5t-137.5 385.5zM238 512q0 -175 97 -282t255 -107q157 0 252.5 107t95.5 282t-95.5 282t-252.5 107q-158 0 -255 -107 t-97 -282zM561 1133l125 272h205l-172 -272h-158z" />
<glyph unicode="&#xe2;" horiz-adv-x="1224" d="M74 512q0 239 137.5 385.5t361.5 146.5q104 0 204.5 -53t160.5 -139v172h164v-1024h-164v172q-60 -86 -160.5 -139t-204.5 -53q-224 0 -361.5 146.5t-137.5 385.5zM238 512q0 -175 97 -282t255 -107q157 0 252.5 107t95.5 282t-95.5 282t-252.5 107q-158 0 -255 -107 t-97 -282zM365 1133l186 241h160l186 -241h-174l-80 104h-25l-79 -104h-174z" />
<glyph unicode="&#xe3;" horiz-adv-x="1224" d="M74 512q0 239 137.5 385.5t361.5 146.5q104 0 204.5 -53t160.5 -139v172h164v-1024h-164v172q-60 -86 -160.5 -139t-204.5 -53q-224 0 -361.5 146.5t-137.5 385.5zM238 512q0 -175 97 -282t255 -107q157 0 252.5 107t95.5 282t-95.5 282t-252.5 107q-158 0 -255 -107 t-97 -282zM317 1135q0 105 57 169t150 64q46 0 88.5 -19t69.5 -42.5t62 -42.5t69 -19q40 0 64 30.5t24 80.5h98q0 -105 -54.5 -169.5t-143.5 -64.5q-51 0 -94 19.5t-68.5 43t-59 43t-67.5 19.5q-43 0 -68.5 -30.5t-25.5 -81.5h-101z" />
<glyph unicode="&#xe4;" horiz-adv-x="1224" d="M74 512q0 239 137.5 385.5t361.5 146.5q104 0 204.5 -53t160.5 -139v172h164v-1024h-164v172q-60 -86 -160.5 -139t-204.5 -53q-224 0 -361.5 146.5t-137.5 385.5zM238 512q0 -175 97 -282t255 -107q157 0 252.5 107t95.5 282t-95.5 282t-252.5 107q-158 0 -255 -107 t-97 -282zM328 1133v204h204v-204h-204zM729 1133v204h205v-204h-205z" />
<glyph unicode="&#xe5;" horiz-adv-x="1224" d="M74 512q0 239 137.5 385.5t361.5 146.5q104 0 204.5 -53t160.5 -139v172h164v-1024h-164v172q-60 -86 -160.5 -139t-204.5 -53q-224 0 -361.5 146.5t-137.5 385.5zM238 512q0 -175 97 -282t255 -107q157 0 252.5 107t95.5 282t-95.5 282t-252.5 107q-158 0 -255 -107 t-97 -282zM451 1303q0 75 52.5 127.5t127.5 52.5t127.5 -52.5t52.5 -127.5q0 -74 -52.5 -127.5t-127.5 -53.5t-127.5 53.5t-52.5 127.5zM563 1303q0 -27 20.5 -47.5t47.5 -20.5q28 0 47.5 20.5t19.5 47.5q0 29 -19 48t-48 19q-28 0 -48 -19t-20 -48z" />
<glyph unicode="&#xe6;" horiz-adv-x="2039" d="M74 512q0 151 62 272t176 190.5t261 69.5q110 0 204.5 -48t160.5 -144v172h164v-172q64 92 158.5 142t207.5 50q226 0 362 -153t136 -395l-16 -17h-846q6 -160 101 -258t247 -98q118 0 207 65t121 160h164q-48 -166 -172 -267t-304 -101q-116 0 -210 49t-156 139v-168 h-164v172q-66 -96 -160.5 -144t-204.5 -48q-147 0 -261 69.5t-176 190.5t-62 272zM238 512q0 -176 94.5 -282.5t257.5 -106.5q159 0 253.5 110t94.5 279q0 172 -95 280.5t-253 108.5q-164 0 -258 -108t-94 -281zM1112 623h680q-27 124 -116.5 201t-223.5 77t-223.5 -77 t-116.5 -201z" />
<glyph unicode="&#xe7;" horiz-adv-x="1163" d="M74 512q0 239 141 385.5t373 146.5q196 0 333 -117t166 -309h-155q-23 128 -117.5 205.5t-226.5 77.5q-158 0 -254 -107t-96 -282t96 -282t254 -107q133 0 228 80.5t118 212.5h156q-28 -187 -155 -305t-310 -129q-105 -91 -105 -156q0 -39 28 -63.5t73 -24.5l77 2v-109 q-59 -32 -149 -32q-89 0 -144 48.5t-55 127.5q0 51 36 108.5t97 104.5q-188 32 -298.5 172.5t-110.5 351.5z" />
<glyph unicode="&#xe8;" horiz-adv-x="1175" d="M74 512q0 239 141 385.5t373 146.5t373 -150.5t141 -397.5l-17 -17h-845q6 -160 101.5 -258t246.5 -98q114 0 203.5 62t123.5 163h164q-50 -166 -184.5 -267t-306.5 -101q-232 0 -373 146.5t-141 385.5zM248 623h680q-29 133 -117.5 205.5t-222.5 72.5t-222.5 -72.5 t-117.5 -205.5zM338 1405h205l116 -272h-157z" />
<glyph unicode="&#xe9;" horiz-adv-x="1175" d="M74 512q0 239 141 385.5t373 146.5t373 -150.5t141 -397.5l-17 -17h-845q6 -160 101.5 -258t246.5 -98q114 0 203.5 62t123.5 163h164q-50 -166 -184.5 -267t-306.5 -101q-232 0 -373 146.5t-141 385.5zM248 623h680q-29 133 -117.5 205.5t-222.5 72.5t-222.5 -72.5 t-117.5 -205.5zM518 1133l125 272h205l-172 -272h-158z" />
<glyph unicode="&#xea;" horiz-adv-x="1175" d="M74 512q0 239 141 385.5t373 146.5t373 -150.5t141 -397.5l-17 -17h-845q6 -160 101.5 -258t246.5 -98q114 0 203.5 62t123.5 163h164q-50 -166 -184.5 -267t-306.5 -101q-232 0 -373 146.5t-141 385.5zM248 623h680q-29 133 -117.5 205.5t-222.5 72.5t-222.5 -72.5 t-117.5 -205.5zM322 1133l186 241h160l186 -241h-174l-80 104h-25l-79 -104h-174z" />
<glyph unicode="&#xeb;" horiz-adv-x="1175" d="M74 512q0 239 141 385.5t373 146.5t373 -150.5t141 -397.5l-17 -17h-845q6 -160 101.5 -258t246.5 -98q114 0 203.5 62t123.5 163h164q-50 -166 -184.5 -267t-306.5 -101q-232 0 -373 146.5t-141 385.5zM248 623h680q-29 133 -117.5 205.5t-222.5 72.5t-222.5 -72.5 t-117.5 -205.5zM285 1133v204h204v-204h-204zM686 1133v204h205v-204h-205z" />
<glyph unicode="&#xec;" horiz-adv-x="409" d="M-45 1405h205l116 -272h-157zM123 0v1024h164v-1024h-164z" />
<glyph unicode="&#xed;" horiz-adv-x="409" d="M123 0v1024h164v-1024h-164zM135 1133l125 272h205l-172 -272h-158z" />
<glyph unicode="&#xee;" horiz-adv-x="409" d="M-61 1133l186 241h160l186 -241h-174l-80 104h-24l-80 -104h-174zM123 0v1024h164v-1024h-164z" />
<glyph unicode="&#xef;" horiz-adv-x="409" d="M-98 1133v204h204v-204h-204zM123 0v1024h164v-1024h-164zM303 1133v204h205v-204h-205z" />
<glyph unicode="&#xf0;" horiz-adv-x="1175" d="M74 512q0 239 136.5 385.5t360.5 146.5q121 0 215 -51q-20 25 -42 49.5t-38.5 42.5t-38.5 38.5t-33 30.5t-30 27t-22 19l-138 -94l-65 57l141 97l-129 108l113 82q31 -23 135 -107l127 89l63 -60l-129 -88q97 -93 164.5 -172t124.5 -174t85 -201t28 -225 q0 -239 -141 -385.5t-373 -146.5t-373 146.5t-141 385.5zM238 512q0 -175 96 -282t254 -107t254 107t96 282t-96 282t-254 107t-254 -107t-96 -282z" />
<glyph unicode="&#xf1;" horiz-adv-x="1155" d="M123 0v1024h164v-131q54 68 142 109.5t177 41.5q192 0 309 -112.5t117 -296.5v-635h-164v606q0 132 -80 213.5t-210 81.5t-210.5 -81.5t-80.5 -213.5v-606h-164zM264 1135q0 105 57 169t150 64q46 0 88.5 -19t69.5 -42.5t62 -42.5t69 -19q40 0 64 30.5t24 80.5h98 q0 -105 -54.5 -169.5t-143.5 -64.5q-50 0 -93.5 19.5t-69 43t-59 43t-67.5 19.5q-43 0 -68.5 -30.5t-25.5 -81.5h-101z" />
<glyph unicode="&#xf2;" horiz-adv-x="1175" d="M74 512q0 239 141 385.5t373 146.5t373 -146.5t141 -385.5t-141 -385.5t-373 -146.5t-373 146.5t-141 385.5zM238 512q0 -175 96 -282t254 -107t254 107t96 282t-96 282t-254 107t-254 -107t-96 -282zM338 1405h205l116 -272h-157z" />
<glyph unicode="&#xf3;" horiz-adv-x="1175" d="M74 512q0 239 141 385.5t373 146.5t373 -146.5t141 -385.5t-141 -385.5t-373 -146.5t-373 146.5t-141 385.5zM238 512q0 -175 96 -282t254 -107t254 107t96 282t-96 282t-254 107t-254 -107t-96 -282zM518 1133l125 272h205l-172 -272h-158z" />
<glyph unicode="&#xf4;" horiz-adv-x="1175" d="M74 512q0 239 141 385.5t373 146.5t373 -146.5t141 -385.5t-141 -385.5t-373 -146.5t-373 146.5t-141 385.5zM238 512q0 -175 96 -282t254 -107t254 107t96 282t-96 282t-254 107t-254 -107t-96 -282zM322 1133l186 241h160l186 -241h-174l-80 104h-25l-79 -104h-174z " />
<glyph unicode="&#xf5;" horiz-adv-x="1175" d="M74 512q0 239 141 385.5t373 146.5t373 -146.5t141 -385.5t-141 -385.5t-373 -146.5t-373 146.5t-141 385.5zM238 512q0 -175 96 -282t254 -107t254 107t96 282t-96 282t-254 107t-254 -107t-96 -282zM274 1135q0 105 57 169t150 64q46 0 88.5 -19t69.5 -42.5t62 -42.5 t69 -19q40 0 64 30.5t24 80.5h98q0 -105 -54.5 -169.5t-143.5 -64.5q-50 0 -93.5 19.5t-69 43t-59.5 43t-67 19.5q-43 0 -68.5 -30.5t-25.5 -81.5h-101z" />
<glyph unicode="&#xf6;" horiz-adv-x="1175" d="M74 512q0 239 141 385.5t373 146.5t373 -146.5t141 -385.5t-141 -385.5t-373 -146.5t-373 146.5t-141 385.5zM238 512q0 -175 96 -282t254 -107t254 107t96 282t-96 282t-254 107t-254 -107t-96 -282zM285 1133v204h204v-204h-204zM686 1133v204h205v-204h-205z" />
<glyph unicode="&#xf7;" horiz-adv-x="1232" d="M123 440v144h987v-144h-987zM504 0v225h225v-225h-225zM504 799v225h225v-225h-225z" />
<glyph unicode="&#xf8;" horiz-adv-x="1185" d="M49 0l146 158q-115 140 -115 354q0 239 141 385.5t373 146.5q191 0 324 -102l73 82h146l-144 -156q115 -140 115 -356q0 -239 -141 -385.5t-373 -146.5q-194 0 -324 102l-75 -82h-146zM244 512q0 -137 61 -236l506 553q-91 72 -217 72q-158 0 -254 -107t-96 -282z M375 197q90 -74 219 -74q158 0 254 107t96 282q0 137 -61 236z" />
<glyph unicode="&#xf9;" horiz-adv-x="1155" d="M123 389v635h164v-606q0 -132 80.5 -213.5t210.5 -81.5t210 81.5t80 213.5v606h164v-1024h-164v131q-54 -68 -142 -109.5t-177 -41.5q-192 0 -309 112.5t-117 296.5zM328 1452h204l117 -272h-157z" />
<glyph unicode="&#xfa;" horiz-adv-x="1155" d="M123 389v635h164v-606q0 -132 80.5 -213.5t210.5 -81.5t210 81.5t80 213.5v606h164v-1024h-164v131q-54 -68 -142 -109.5t-177 -41.5q-192 0 -309 112.5t-117 296.5zM508 1180l125 272h205l-172 -272h-158z" />
<glyph unicode="&#xfb;" horiz-adv-x="1155" d="M123 389v635h164v-606q0 -132 80.5 -213.5t210.5 -81.5t210 81.5t80 213.5v606h164v-1024h-164v131q-54 -68 -142 -109.5t-177 -41.5q-192 0 -309 112.5t-117 296.5zM311 1180l187 241h159l187 -241h-174l-80 104h-25l-80 -104h-174z" />
<glyph unicode="&#xfc;" horiz-adv-x="1155" d="M123 389v635h164v-606q0 -132 80.5 -213.5t210.5 -81.5t210 81.5t80 213.5v606h164v-1024h-164v131q-54 -68 -142 -109.5t-177 -41.5q-192 0 -309 112.5t-117 296.5zM274 1180v204h205v-204h-205zM676 1180v204h205v-204h-205z" />
<glyph unicode="&#xfd;" horiz-adv-x="1042" d="M49 1024h174l299 -752l295 752h176l-553 -1405h-176l174 442zM453 1133l125 272h204l-172 -272h-157z" />
<glyph unicode="&#xfe;" d="M123 -381v1786h164v-555q60 88 163 141t212 53q227 0 366 -146.5t139 -385.5t-139 -385.5t-366 -146.5q-109 0 -212 53t-163 141v-555h-164zM287 512q0 -175 98.5 -282t259.5 -107t260 107t99 282t-99 282t-260 107t-259.5 -107t-98.5 -282z" />
<glyph unicode="&#xff;" horiz-adv-x="1042" d="M49 1024h174l299 -752l295 752h176l-553 -1405h-176l174 442zM219 1133v204h205v-204h-205zM621 1133v204h204v-204h-204z" />
<glyph unicode="&#x152;" horiz-adv-x="2230" d="M74 705q0 202 87 367t240 259t340 94q163 0 299.5 -81.5t221.5 -221.5v283h907v-164h-723v-405h649v-164h-649v-508h723v-164h-907v283q-85 -141 -221 -222t-300 -81q-192 0 -345 96.5t-237.5 261.5t-84.5 367zM258 705q0 -156 60.5 -283t176 -203t265.5 -76t265.5 76 t176 203t60.5 283q0 155 -60.5 281t-176 201t-265.5 75t-265.5 -75t-176 -201t-60.5 -281z" />
<glyph unicode="&#x153;" horiz-adv-x="2039" d="M74 512q0 233 146.5 382.5t367.5 149.5q141 0 253 -61t179 -170q68 108 181.5 169.5t250.5 61.5q233 0 373.5 -153t140.5 -395l-16 -17h-846q6 -160 101 -258t247 -98q118 0 207 65t121 160h164q-49 -166 -177.5 -267t-314.5 -101q-140 0 -252.5 59.5t-179.5 165.5 q-67 -106 -178.5 -165.5t-253.5 -59.5q-228 0 -371 148.5t-143 383.5zM238 512q0 -173 96.5 -281t253.5 -108q161 0 255.5 108.5t94.5 280.5q0 173 -96.5 281t-253.5 108q-158 0 -254 -110t-96 -279zM1112 623h680q-27 124 -116.5 201t-223.5 77t-223.5 -77t-116.5 -201z " />
<glyph unicode="&#x178;" horiz-adv-x="1193" d="M49 1405h203l346 -715l344 715h203l-455 -924v-481h-184v481zM295 1513v205h205v-205h-205zM696 1513v205h205v-205h-205z" />
<glyph unicode="&#x2c6;" d="M348 1133l187 241h159l187 -241h-174l-80 104h-25l-80 -104h-174z" />
<glyph unicode="&#x2dc;" d="M301 1135q0 105 57 169t150 64q46 0 88.5 -19t69.5 -42.5t62 -42.5t69 -19q40 0 64 30.5t24 80.5h98q0 -104 -55 -169t-144 -65q-41 0 -77 13t-60.5 31t-47.5 36.5t-49 31.5t-54 13q-43 0 -69 -30.5t-26 -81.5h-100z" />
<glyph unicode="&#x2000;" horiz-adv-x="932" />
<glyph unicode="&#x2001;" horiz-adv-x="1864" />
<glyph unicode="&#x2002;" horiz-adv-x="932" />
<glyph unicode="&#x2003;" horiz-adv-x="1864" />
<glyph unicode="&#x2004;" horiz-adv-x="621" />
<glyph unicode="&#x2005;" horiz-adv-x="466" />
<glyph unicode="&#x2006;" horiz-adv-x="310" />
<glyph unicode="&#x2007;" horiz-adv-x="310" />
<glyph unicode="&#x2008;" horiz-adv-x="233" />
<glyph unicode="&#x2009;" horiz-adv-x="372" />
<glyph unicode="&#x200a;" horiz-adv-x="103" />
<glyph unicode="&#x2010;" horiz-adv-x="954" d="M123 420v143h708v-143h-708z" />
<glyph unicode="&#x2011;" horiz-adv-x="954" d="M123 420v143h708v-143h-708z" />
<glyph unicode="&#x2012;" horiz-adv-x="954" d="M123 420v143h708v-143h-708z" />
<glyph unicode="&#x2013;" horiz-adv-x="1232" d="M123 420v143h987v-143h-987z" />
<glyph unicode="&#x2014;" horiz-adv-x="1751" d="M123 420v143h1505v-143h-1505z" />
<glyph unicode="&#x2018;" horiz-adv-x="471" d="M123 954v226q0 101 62 163t163 62v-123q-46 0 -74 -28t-28 -74h102v-226h-225z" />
<glyph unicode="&#x2019;" horiz-adv-x="471" d="M123 954v123q46 0 74 28.5t28 74.5h-102v225h225v-225q0 -101 -62 -163.5t-163 -62.5z" />
<glyph unicode="&#x201a;" horiz-adv-x="471" d="M123 0v225h225v-225q0 -101 -62 -163t-163 -62v123q46 0 74 28t28 74h-102z" />
<glyph unicode="&#x201c;" horiz-adv-x="761" d="M123 954v226q0 101 62 163t163 62v-123q-46 0 -74 -28t-28 -74h102v-226h-225zM414 954v226q0 101 62 163t163 62v-123q-46 0 -74 -28t-28 -74h102v-226h-225z" />
<glyph unicode="&#x201d;" horiz-adv-x="761" d="M123 954v123q46 0 74 28.5t28 74.5h-102v225h225v-225q0 -101 -62 -163.5t-163 -62.5zM414 954v123q46 0 74 28.5t28 74.5h-102v225h225v-225q0 -101 -62 -163.5t-163 -62.5z" />
<glyph unicode="&#x201e;" horiz-adv-x="471" d="M123 0v225h225v-225q0 -101 -62 -163t-163 -62v123q46 0 74 28t28 74h-102z" />
<glyph unicode="&#x2022;" horiz-adv-x="624" d="M123 518q0 78 55.5 133.5t134.5 55.5q78 0 133.5 -55.5t55.5 -133.5q0 -79 -55.5 -134.5t-133.5 -55.5q-79 0 -134.5 55t-55.5 135z" />
<glyph unicode="&#x2026;" horiz-adv-x="1658" d="M123 0v225h225v-225h-225zM717 0v225h225v-225h-225zM1311 0v225h225v-225h-225z" />
<glyph unicode="&#x202f;" horiz-adv-x="372" />
<glyph unicode="&#x2039;" horiz-adv-x="653" d="M123 510l262 362h145l-264 -362l262 -363h-143z" />
<glyph unicode="&#x203a;" horiz-adv-x="653" d="M123 872h145l262 -362l-262 -363h-143l262 363z" />
<glyph unicode="&#x205f;" horiz-adv-x="466" />
<glyph unicode="&#x20ac;" horiz-adv-x="1284" d="M61 459l19 102h110q-6 65 -6 141q0 80 6 142h-129l19 102h125q50 231 177 355t314 124q212 0 353.5 -132t160.5 -347h-153q-13 151 -113 243.5t-248 92.5q-123 0 -208 -87.5t-119 -248.5h417l-18 -100l-416 -2q-6 -59 -6 -137q0 -79 6 -146h367l-19 -102h-331 q37 -162 121.5 -249t205.5 -87q146 0 246 92.5t115 243.5h153q-19 -215 -160.5 -347t-353.5 -132q-187 0 -314 124t-177 355h-144z" />
<glyph unicode="&#x2122;" horiz-adv-x="1583" d="M123 1282v123h524v-123h-196v-557h-132v557h-196zM737 725v680h152l209 -502l211 502h151v-680h-131v442l-184 -442h-90l-185 442v-442h-133z" />
<glyph unicode="&#x25fc;" horiz-adv-x="1024" d="M0 0v1024h1024v-1024h-1024z" />
</font>
</defs>
</svg>
